www.hjsbounceworld.com.v3

Mile.22.2018.German.AC3MD.DL.720p.WEB-DL.h264-SHITMIC - Kommentare

Board RSS API Hilfe Kontakt
HEADii
HEADii User 30. Okt 2018, 13:27 Uhr
Keine Bewertung des Benutzers
Sind für die Russischen Stellen nun wenigstens Untertitel (Deutsch oder Englisch) enthalten ?
0
9

j0nezzz
j0nezzz AFRiKA.&.P0LiSH♥|✝ 30. Okt 2018, 14:31 Uhr
Keine Bewertung des Benutzers
@_danny_
Finde die von Frage Joe D. Foster berechtigt.

Anstatt irgendwelche Behauptungen oder Vermutungen aufzustellen, poste doch was sinnvolles bezüglich der Bewertung des hier vorliegenden Release.

Als Beispiel ist das Bild besser siehe Screens (meiner Meinung nach). Weil die iTunes-Source
benutzt wurde.

Video: 1280 x 536 @ 4,0 Mbps (iTunes)


Oh sehe der Kommentar wurde gelöscht von _danny_, vielleicht ließt er es ja trotzdem ;)

Und by the way es sind keine Untertitel für die russisch gesprochenen Stellen dabei.

@_danny_² sehe da nichts arrogantes dran, nunja ist vielleicht auch Ansichtssache. Die MiC ist gar nicht mal soo schlecht in meinen Augen. Ist doch schön, dass man den Film nun auch so genießen kann. Man muss ja nicht immer meckern :annoyed:

EDiT - Korrekturen
5 mal bearbeitet, zuletzt 30. Okt 2018, 15:06 Uhr
1
9

_danny_
_danny_ User 30. Okt 2018, 14:41 Uhr
Keine Bewertung des Benutzers
Die Frage von Joe D. Foster wurde aber spätestens nach den ersten 5 Kommentaren mehr als umfänglich beantwortet, und trotzdem wird der rest nicht gelöscht.

Wenn die Mic so scheiße ist, dann soll man sie halt nicht releasen anstatt sich gewohnt arrogant zu zeigen indem man die Group Shitmic nennt, um trotzdem die OCH Kohle abzugreifen
1 mal bearbeitet, zuletzt 30. Okt 2018, 14:46 Uhr
5
4

ONLINE ACE
ONLINE ACE User 30. Okt 2018, 14:50 Uhr
Keine Bewertung des Benutzers
Hi.

Keine Deutschen Untertitel dabei.

Die MIC ist nicht scheisse. :p
Die MIC ist ok. :)

MfG-,-
1 mal bearbeitet, zuletzt 30. Okt 2018, 14:52 Uhr
0
8

 
armin0815 User 30. Okt 2018, 15:00 Uhr
Keine Bewertung des Benutzers
Keine Subs in der mkv drin auch keine englischen...
Mediainfo:
[Spoiler: Zum Lesen hier klicken!]

General
Unique ID                   : 229166214308016478000218915219508790464 (0xAC67CEB43DD37C458B28816FD57F84C0)
Complete name               : E:\m22.webdl72\m22.webdl72\Mile.22.2018.German.AC3MD.DL.720p.WEB-DL.h264-SHITMIC\m22.webdl72.mkv
Format                      : Matroska
Format version              : Version 4 / Version 2
File size                   : 3.04 GiB
Duration                    : 1h 34mn
Overall bit rate            : 4 599 Kbps
Encoded date                : UTC 2018-10-30 06:47:54
Writing application         : mkvmerge v8.3.0 ('Over the Horizon') 64bit
Writing library             : libebml v1.3.1 + libmatroska v1.4.2
DURATION                    : 01:34:19.328000000
NUMBER_OF_FRAMES            : 176854
NUMBER_OF_BYTES             : 135823872
_STATISTICS_WRITING_APP     : mkvmerge v8.3.0 ('Over the Horizon') 64bit
_STATISTICS_WRITING_DATE_UT : 2018-10-30 06:47:54
_STATISTICS_TAGS            : BPS DURATION NUMBER_OF_FRAMES NUMBER_OF_BYTES

Video
ID                          : 1
Format                      : AVC
Format/Info                 : Advanced Video Codec
Format profile              : [email protected]
Format settings, CABAC      : No
Format settings, ReFrames   : 2 frames
Codec ID                    : V_MPEG4/ISO/AVC
Duration                    : 1h 34mn
Bit rate                    : 3 931 Kbps
Width                       : 1 280 pixels
Height                      : 532 pixels
Display aspect ratio        : 2.40:1
Frame rate mode             : Constant
Frame rate                  : 23.976 fps
Color space                 : YUV
Chroma subsampling          : 4:2:0
Bit depth                   : 8 bits
Scan type                   : Progressive
Bits/(Pixel*Frame)          : 0.241
Stream size                 : 2.60 GiB (85%)
Language                    : English
Default                     : Yes
Forced                      : No
Color range                 : Limited
Color primaries             : BT.709
Transfer characteristics    : BT.709
Matrix coefficients         : BT.709

Audio #1
ID                          : 2
Format                      : AC-3
Format/Info                 : Audio Coding 3
Mode extension              : CM (complete main)
Format settings, Endianness : Big
Codec ID                    : A_AC3
Duration                    : 1h 34mn
Bit rate mode               : Constant
Bit rate                    : 192 Kbps
Channel(s)                  : 2 channels
Channel positions           : Front: L R
Sampling rate               : 48.0 KHz
Compression mode            : Lossy
Delay relative to video     : 21s 58ms
Stream size                 : 130 MiB (4%)
Language                    : German
Default                     : Yes
Forced                      : Yes

Audio #2
ID                          : 3
Format                      : AC-3
Format/Info                 : Audio Coding 3
Mode extension              : CM (complete main)
Format settings, Endianness : Big
Codec ID                    : A_AC3
Duration                    : 1h 34mn
Bit rate mode               : Constant
Bit rate                    : 384 Kbps
Channel(s)                  : 6 channels
Channel positions           : Front: L C R, Side: L R, LFE
Sampling rate               : 48.0 KHz
Compression mode            : Lossy
Delay relative to video     : -42ms
Stream size                 : 260 MiB (8%)
Language                    : English
Default                     : No
Forced                      : No

Menu
00:00:00.000                : en:Chapter 01
00:16:16.643                : en:Chapter 02
00:25:16.057                : en:Chapter 03
00:36:33.692                : en:Chapter 04
00:46:27.869                : en:Chapter 05
00:59:14.135                : en:Chapter 06
01:07:39.890                : en:Chapter 07
01:18:22.908                : en:Chapter 08
01:27:14.814                : en:Chapter 09


Es ging _danny_ warscheinlich darum, warum sie es nicht als PS released haben, war halt nicht ihre own mic oder hat nicht ihren Qualitätsansprüchen genügt, also mussten sie eine neue Group machen, ist doch nix neues bei denen, immerhin haben sie sich bei RonnyLee bedankt...
0
10


Releasebewertung
Produktbewertung: 6,5 / 10
Gesamt: 8 Stimmen

Release-Optionen

© 2004-2018 by www.hjsbounceworld.comease. Alle Rechte vorbehalten.
Version: 3.4-722b773381020550e9825ad02ab409ba873efc62 [20180819-491]
Besucher online: 784
Mitglieder online: 94
P2P-Releases
Entertainment
Nach Oben

Hast du das verstanden? Ja! | Nein!

Is that clear? Yes! | No!

Sitemap