www.hjsbounceworld.com.v3

Solo.A.Star.Wars.Story.2018.German.DL.2160p.UHD.BluRay.x265-ENDSTATiON - Kommentare

Board RSS API Hilfe Kontakt
Darktrance
Darktrance User 30. Okt 2018, 11:46 Uhr
Keine Bewertung des Benutzers
Also ich finde beim besten willen keine UHD mit Deutsch DTS-HD. Entweder bin ich zu dumm zum suchen oder aber das Release ist misslabeld weil der Ton von der Steelbook Limited kommt und daher German.Dubbed lauten müsste. :-/
0
8

ONLINE ACE
ONLINE ACE User 30. Okt 2018, 12:05 Uhr
Keine Bewertung des Benutzers
Hi.

Vielleicht von der:

Solo.A.Star.Wars.Story.2018.Bluray.2160p.UHD.HDR10.HEVC.TrueHD.7.1-CYBER

1
4

stewiegriffin
stewiegriffin User 30. Okt 2018, 12:10 Uhr
Keine Bewertung des Benutzers
ist falsch angegeben in der NFO

hier mal mediainfo vom sample:

[Spoiler: Zum Lesen hier klicken!]
Video
ID                             : 1
Format                         : HEVC
Format/Info                    : High Efficiency Video Coding
Commercial name                : HDR10
Format profile                 : Main [email protected]@High
Codec ID                       : V_MPEGH/ISO/HEVC
Duration                       : 1 min 18 s
Bit rate                       : 14.1 Mb/s
Width                          : 3 840 pixels
Height                         : 1 608 pixels
Display aspect ratio           : 2.40:1
Frame rate mode                : Constant
Frame rate                     : 23.976 (24000/1001) FPS
Color space                    : YUV
Chroma subsampling             : 4:2:0 (Type 2)
Bit depth                      : 10 bits
Bits/(Pixel*Frame)             : 0.095
Stream size                    : 132 MiB (65%)
Writing library                : x265 2.8+66-88ee12651e30:[Windows][GCC 6.3.0][64 bit] 10bit
Encoding settings              : cpuid=1111039 / frame-threads=5 / numa-pools=16,16 / wpp / no-pmode / no-pme / no-psnr / no-ssim / log-level=2 / input-csp=1 / input-res=3840x1608 / interlace=0 / total-frames=193864 / level-idc=51 / high-tier=1 / uhd-bd=0 / ref=4 / no-allow-non-conformance / repeat-headers / annexb / aud / hrd / info / hash=0 / no-temporal-layers / no-open-gop / min-keyint=24 / keyint=240 / gop-lookahead=0 / bframes=4 / b-adapt=2 / b-pyramid / bframe-bias=0 / rc-lookahead=25 / lookahead-slices=4 / scenecut=40 / radl=0 / no-intra-refresh / ctu=64 / min-cu-size=8 / rect / no-amp / max-tu-size=32 / tu-inter-depth=1 / tu-intra-depth=1 / limit-tu=0 / rdoq-level=2 / dynamic-rd=0.00 / no-ssim-rd / signhide / no-tskip / nr-intra=0 / nr-inter=0 / no-constrained-intra / no-strong-intra-smoothing / max-merge=3 / limit-refs=3 / limit-modes / me=3 / subme=3 / merange=57 / temporal-mvp / weightp / no-weightb / no-analyze-src-pics / deblock=-3:-3 / no-sao / no-sao-non-deblock / rd=4 / no-early-skip / rskip / no-fast-intra / no-tskip-fast / no-cu-lossless / no-b-intra / no-splitrd-skip / rdpenalty=0 / psy-rd=2.00 / psy-rdoq=1.00 / no-rd-refine / no-lossless / cbqpoffs=0 / crqpoffs=0 / rc=crf / crf=17.0 / qcomp=0.60 / qpstep=4 / stats-write=0 / stats-read=0 / vbv-maxrate=160000 / vbv-bufsize=160000 / vbv-init=0.9 / crf-max=0.0 / crf-min=0.0 / ipratio=1.40 / pbratio=1.30 / aq-mode=1 / aq-strength=1.00 / cutree / zone-count=0 / no-strict-cbr / qg-size=32 / no-rc-grain / qpmax=69 / qpmin=0 / no-const-vbv / sar=1 / overscan=0 / videoformat=5 / range=0 / colorprim=9 / transfer=16 / colormatrix=9 / chromaloc=1 / chromaloc-top=2 / chromaloc-bottom=2 / display-window=0 / master-display=G(13250,34500)B(7500,3000)R(34000,16000)WP(15635,16450)L(10000000,01) / max-cll=0,0 / min-luma=0 / max-luma=1023 / log2-max-poc-lsb=8 / vui-timing-info / vui-hrd-info / slices=1 / no-opt-qp-pps / no-opt-ref-list-length-pps / no-multi-pass-opt-rps / scenecut-bias=0.05 / no-opt-cu-delta-qp / no-aq-motion / hdr / hdr-opt / no-dhdr10-opt / no-idr-recovery-sei / analysis-reuse-level=5 / scale-factor=0 / refine-intra=0 / refine-inter=0 / refine-mv=0 / no-limit-sao / ctu-info=0 / no-lowpass-dct / refine-mv-type=0 / copy-pic=1 / max-ausize-factor=1.0 / no-dynamic-refine / no-single-sei
Default                        : Yes
Forced                         : No
Color range                    : Limited
Color primaries                : BT.2020
Transfer characteristics       : PQ
Matrix coefficients            : BT.2020 non-constant
Mastering display color primar : Display P3
Mastering display luminance    : min: 0.0001 cd/m2, max: 1000 cd/m2

Audio #1
ID                             : 2
Format                         : E-AC-3
Format/Info                    : Enhanced AC-3
Commercial name                : Dolby Digital Plus
Format profile                 : Blu-ray Disc
Codec ID                       : A_EAC3
Duration                       : 1 min 18 s
Bit rate mode                  : Constant
Bit rate                       : 1 024 kb/s
Channel(s)                     : 6 channels
Channel(s)_Original            : 8 channels
Channel layout                 : L R C LFE Ls Rs Lb Rb
Sampling rate                  : 48.0 kHz
Frame rate                     : 31.250 FPS (1536 SPF)
Compression mode               : Lossy
Delay relative to video        : 6 ms
Stream size                    : 9.60 MiB (5%)
Title                          : Surround 7.1
Language                       : German
Service kind                   : Complete Main
Default                        : Yes
Forced                         : No

Audio #2
ID                             : 3
Format                         : AC-3
Format/Info                    : Audio Coding 3
Commercial name                : Dolby Digital
Codec ID                       : A_AC3
Duration                       : 1 min 18 s
Bit rate mode                  : Constant
Bit rate                       : 576 kb/s
Channel(s)                     : 6 channels
Channel layout                 : L R C LFE Ls Rs
Sampling rate                  : 48.0 kHz
Frame rate                     : 31.250 FPS (1536 SPF)
Bit depth                      : 16 bits
Compression mode               : Lossy
Delay relative to video        : 6 ms
Stream size                    : 5.40 MiB (3%)
Title                          : Surround 5.1
Language                       : German
Service kind                   : Complete Main
Default                        : No
Forced                         : No

Audio #3
ID                             : 4
Format                         : MLP FBA 16-ch
Format/Info                    : Meridian Lossless Packing FBA with 16-channel presentation
Commercial name                : Dolby TrueHD with Dolby Atmos
Codec ID                       : A_TRUEHD
Duration                       : 1 min 18 s
Bit rate mode                  : Variable
Bit rate                       : 5 148 kb/s
Maximum bit rate               : 6 933 kb/s
Channel(s)                     : 8 channels
Channel layout                 : L R C LFE Ls Rs Lb Rb
Sampling rate                  : 48.0 kHz
Frame rate                     : 1 200.000 FPS (40 SPF)
Compression mode               : Lossless
Delay relative to video        : 1 ms
Stream size                    : 48.2 MiB (24%)
Title                          : Surround 7.1
Language                       : English
Default                        : No
Forced                         : No
Number of dynamic objects      : 13
Bed channel count              : 1 channel
Bed channel configuration      : LFE

Audio #4
ID                             : 5
Format                         : AC-3
Format/Info                    : Audio Coding 3
Commercial name                : Dolby Digital
Codec ID                       : A_AC3
Duration                       : 1 min 18 s
Bit rate mode                  : Constant
Bit rate                       : 640 kb/s
Channel(s)                     : 6 channels
Channel layout                 : L R C LFE Ls Rs
Sampling rate                  : 48.0 kHz
Frame rate                     : 31.250 FPS (1536 SPF)
Bit depth                      : 16 bits
Compression mode               : Lossy
Delay relative to video        : 6 ms
Stream size                    : 6.00 MiB (3%)
Title                          : Surround 5.1
Language                       : English
Service kind                   : Complete Main
Default                        : No
Forced                         : No

Text #1
ID                             : 6
Format                         : UTF-8
Codec ID                       : S_TEXT/UTF8
Codec ID/Info                  : UTF-8 Plain Text
Duration                       : 14 s 264 ms
Bit rate                       : 36 b/s
Count of elements              : 3
Stream size                    : 65.0 Bytes (0%)
Title                          : Ger Forced SRT
Language                       : German
Default                        : Yes
Forced                         : No

Text #2
ID                             : 7
Format                         : UTF-8
Codec ID                       : S_TEXT/UTF8
Codec ID/Info                  : UTF-8 Plain Text
Duration                       : 14 s 222 ms
Bit rate                       : 29 b/s
Count of elements              : 3
Stream size                    : 52.0 Bytes (0%)
Title                          : Eng Forced SRT
Language                       : English
Default                        : No
Forced                         : No

Text #3
ID                             : 8
Format                         : PGS
Muxing mode                    : zlib
Codec ID                       : S_HDMV/PGS
Codec ID/Info                  : Picture based subtitle format used on BDs/HD-DVDs
Duration                       : 14 s 264 ms
Bit rate                       : 25.1 kb/s
Count of elements              : 6
Stream size                    : 43.7 KiB (0%)
Title                          : Ger Forced
Language                       : German
Default                        : No
Forced                         : No

Text #4
ID                             : 9
Format                         : PGS
Muxing mode                    : zlib
Codec ID                       : S_HDMV/PGS
Codec ID/Info                  : Picture based subtitle format used on BDs/HD-DVDs
Duration                       : 14 s 222 ms
Bit rate                       : 21.3 kb/s
Count of elements              : 6
Stream size                    : 37.0 KiB (0%)
Title                          : Eng Forced
Language                       : English
Default                        : No
Forced                         : No

Text #5
ID                             : 10
Format                         : PGS
Muxing mode                    : zlib
Codec ID                       : S_HDMV/PGS
Codec ID/Info                  : Picture based subtitle format used on BDs/HD-DVDs
Duration                       : 1 min 17 s
Bit rate                       : 45.8 kb/s
Count of elements              : 49
Stream size                    : 435 KiB (0%)
Language                       : German
Default                        : No
Forced                         : No

Text #6
ID                             : 11
Format                         : PGS
Muxing mode                    : zlib
Codec ID                       : S_HDMV/PGS
Codec ID/Info                  : Picture based subtitle format used on BDs/HD-DVDs
Duration                       : 1 min 18 s
Bit rate                       : 59.5 kb/s
Count of elements              : 63
Stream size                    : 568 KiB (0%)
Language                       : English
Default                        : No
Forced                         : No

Menu
00:00:00.000                   : en:Chapter 03
00:00:29.363                   : en:Chapter 04

0
7

Darktrance
Darktrance User 30. Okt 2018, 14:51 Uhr
Keine Bewertung des Benutzers
ONLINE ACE schrieb:
Hi.

Vielleicht von der:

Solo.A.Star.Wars.Story.2018.Bluray.2160p.UHD.HDR10.HEVC.TrueHD.7.1-CYBER


Wo siehst du da eine Deutsche geschweige englische DTS-HD Tonspur?
1
5

ONLINE ACE
ONLINE ACE User 30. Okt 2018, 15:06 Uhr
Keine Bewertung des Benutzers
Ich hab doch geschrieben vielleicht.
Hatte keine Info dafür.
Ich dachte wegen 7.1
1 mal bearbeitet, zuletzt 30. Okt 2018, 15:08 Uhr
0
2

 
armin0815 User 30. Okt 2018, 15:18 Uhr
Keine Bewertung des Benutzers
UHD har nur Dolby Atmos/TrueHD 7.1 bzw Dolby Digital Plus Audio 7.1
[Spoiler: Zum Lesen hier klicken!]

DISC INFO:

Disc Title: Solo A Star Wars Story 2018 UHD
Disc Size: 60,817,631,187 bytes
Protection: AACS2
BD-Java: Yes
Extras: Ultra HD
BDInfo: 0.5.8.7 (compatible layout created by DVDFab 10.0.6.8)

PLAYLIST REPORT:

Name: 00800.MPLS 
Length: 2:14:45.744 (h:m:s.ms)
Size: 57,708,816,384 bytes
Total Bitrate: 57.10 Mbps

VIDEO:

Codec Bitrate Description 
----- ------- ----------- 
MPEG-H HEVC Video 43137 kbps 2160p / 23.976 fps / 16:9 / Main 10 Profile 5.1 High / 4:2:0 / 10 bits / HDR / BT.2020 / 

AUDIO:

Codec Language Bitrate Description 
----- -------- ------- ----------- 
Dolby Atmos/TrueHD Audio English 5621 kbps 7.1-Atmos / 48 kHz / 5621 kbps / 24-bit (AC3 Core: 5.1 / 48 kHz / 640 kbps)
Dolby Digital Audio English 320 kbps 2.0 / 48 kHz / 320 kbps
Dolby Digital Plus Audio German 1024 kbps 7.1 / 48 kHz / 1024 kbps
Dolby Digital Plus Audio French 1024 kbps 7.1 / 48 kHz / 1024 kbps
Dolby Digital Plus Audio Italian 1024 kbps 7.1 / 48 kHz / 1024 kbps
Dolby Digital Plus Audio Japanese 1024 kbps 7.1 / 48 kHz / 1024 kbps

SUBTITLES:

Codec Language Bitrate Description 
----- -------- ------- ----------- 
Presentation Graphics English 39.11 kbps 
Presentation Graphics German 32.537 kbps 
Presentation Graphics French 27.705 kbps 
Presentation Graphics Italian 32.54 kbps 
Presentation Graphics Japanese 24.854 kbps 
Presentation Graphics Norwegian 30.453 kbps 
Presentation Graphics Swedish 27.265 kbps 
Presentation Graphics English 0.244 kbps 
Presentation Graphics German 0.293 kbps 
Presentation Graphics French 0.237 kbps 
Presentation Graphics Italian 0.234 kbps 
Presentation Graphics Japanese 0.229 kbps 

0
4

ONLINE ACE
ONLINE ACE User 30. Okt 2018, 15:18 Uhr
Keine Bewertung des Benutzers
Ok. Danke @ armin0815 :)

Gibt aber eine selber gemixte DTS Spur einzeln dafür.
1 mal bearbeitet, zuletzt 30. Okt 2018, 15:22 Uhr
0
3

 
armin0815 User 30. Okt 2018, 18:44 Uhr
Keine Bewertung des Benutzers
ONLINE ACE schrieb:
Gibt aber eine selber gemixte DTS Spur einzeln dafür.

Ja. im P2P, DTS hört sich halt besser an, gibt mehr $$$ im OCH, da wurde nix gemixt, einfach die Dolby Digital Plus Audio nach DTS encoded...

Die deutsche DTS wurde aus der EAC3 Tonspur encodiert
0
2

ONLINE ACE
ONLINE ACE User 30. Okt 2018, 19:16 Uhr
Keine Bewertung des Benutzers
Ah. Ok.

Deutsch DTS-HD 7.1 v2

Gemischt aus der englischen Atmos und der deutschen Dolby Digital + Spur zzgl. einiger Anpassungen zugunsten der Dynamik, die auch im OTon nicht gut ist.
0
0


Releasebewertung
Produktbewertung: 6,6 / 10
Gesamt: 74 Stimmen

Release-Optionen

Release-Info
Zeit:
25. Sep 2018, 19:44 Uhr
Release-Group:
Release-Größe:
16864 MB
Nuked:
Nein
Repack oder Proper:
Nein
Read NFO:
Nein
NFO-Größe:
0,56 KB
Video-Stream:
Blu-ray
Audio-Stream:
DTS
Kategorien:

© 2004-2018 by www.hjsbounceworld.comease. Alle Rechte vorbehalten.
Version: 3.4-722b773381020550e9825ad02ab409ba873efc62 [20180819-491]
Besucher online: 724
Mitglieder online: 83
P2P-Releases
Entertainment
Nach Oben

Hast du das verstanden? Ja! | Nein!

Is that clear? Yes! | No!

Sitemap